osu file format v14

[General]
AudioFilename: 04 - Connect -TV MIX-.mp3
AudioLeadIn: 1500
PreviewTime: 66416
Countdown: 0
SampleSet: Soft
StackLeniency: 0.7
Mode: 3
LetterboxInBreaks: 0
WidescreenStoryboard: 0

[Editor]
DistanceSpacing: 0.8
BeatDivisor: 4
GridSize: 4
TimelineZoom: 2.1

[Metadata]
Title:Connect -TV MIX-
TitleUnicode:コネクト -TV MIX-
Artist:ClariS
ArtistUnicode:ClariS
Creator:captin1
Version:Rumi's MX
Source:魔法少女まどか☆マギカ
Tags:Mahou Shoujo Madoka Magika Puella Magi no_gu mmzz karia xinely spectator momochikun kantokun rumia- alice clara
BeatmapID:519068
BeatmapSetID:203567

[Difficulty]
HPDrainRate:8
CircleSize:7
OverallDifficulty:8
ApproachRate:5
SliderMultiplier:1.4
SliderTickRate:1

[Events]
//Background and Video events
0,0,"mania.jpg",0,0
Video,480,"connect.avi",0,0
//Break Periods
//Storyboard Layer 0 (Background)
//Storyboard Layer 1 (Fail)
//Storyboard Layer 2 (Pass)
//Storyboard Layer 3 (Foreground)
//Storyboard Sound Samples

[TimingPoints]
1359,342.857142857143,4,2,9,15,1,0
1359,-125,4,2,9,15,0,0
10787,-250,4,2,9,15,0,0
11641,-100,4,2,9,15,0,0
12330,-100,4,2,9,50,0,0
20559,-100,4,2,9,30,0,0
65816,-125,4,2,9,50,0,0
66501,-25,4,2,9,50,0,0
66587,-200,4,2,9,50,0,0
67187,-100,4,2,9,50,0,1
80130,-200,4,2,9,50,0,1
80216,-66.6666666666667,4,2,9,50,0,1
80387,-100,4,2,9,50,0,1
80473,-200,4,2,9,50,0,1
80559,-66.6666666666667,4,2,9,50,0,1
80730,-100,4,2,9,50,0,1
87759,-100,4,2,9,50,0,0

[HitObjects]
36,192,1359,5,0,0:0:0:0:
329,192,1359,1,0,0:0:0:0:
402,192,1530,1,0,0:0:0:0:
475,192,1701,1,0,0:0:0:0:
402,192,2044,1,0,0:0:0:0:
475,192,2216,1,0,0:0:0:0:
109,192,2730,1,0,0:0:0:0:
402,192,2730,1,0,0:0:0:0:
256,192,2901,1,0,0:0:0:0:
475,192,3073,1,0,0:0:0:0:
256,192,3416,1,0,0:0:0:0:
475,192,3587,1,0,0:0:0:0:
36,192,4101,1,0,0:0:0:0:
329,192,4101,1,0,0:0:0:0:
402,192,4273,1,0,0:0:0:0:
475,192,4444,1,0,0:0:0:0:
256,192,4616,1,0,0:0:0:0:
329,192,4787,1,0,0:0:0:0:
402,192,4959,1,0,0:0:0:0:
182,192,5130,1,0,0:0:0:0:
329,192,5301,1,0,0:0:0:0:
402,192,5473,1,0,0:0:0:0:
182,192,5473,1,0,0:0:0:0:
109,192,5644,1,0,0:0:0:0:
256,192,5816,1,0,0:0:0:0:
475,192,5816,1,0,0:0:0:0:
182,192,5987,1,0,0:0:0:0:
329,192,6159,1,0,0:0:0:0:
475,192,6159,1,0,0:0:0:0:
36,192,6330,1,0,0:0:0:0:
182,192,6501,1,0,0:0:0:0:
329,192,6673,1,0,0:0:0:0:
36,192,6844,1,0,0:0:0:0:
182,192,6844,1,0,0:0:0:0:
475,192,6844,1,0,0:0:0:0:
329,192,7016,1,0,0:0:0:0:
475,192,7187,1,0,0:0:0:0:
329,192,7530,1,0,0:0:0:0:
475,192,7701,1,0,0:0:0:0:
109,192,7873,1,0,0:0:0:0:
329,192,8044,1,0,0:0:0:0:
182,192,8216,1,0,0:0:0:0:
475,192,8216,1,0,0:0:0:0:
36,192,8387,1,0,0:0:0:0:
329,192,8559,1,0,0:0:0:0:
36,192,8901,1,0,0:0:0:0:
182,192,9073,1,0,0:0:0:0:
475,192,9244,1,0,0:0:0:0:
329,192,9416,1,0,0:0:0:0:
109,192,9587,1,0,0:0:0:0:
402,192,9587,1,0,0:0:0:0:
256,192,9587,128,0,10616:0:0:0:0:
475,192,9759,1,0,0:0:0:0:
329,192,9930,1,0,0:0:0:0:
109,192,10101,1,0,0:0:0:0:
36,192,10273,1,0,0:0:0:0:
329,192,10444,1,0,0:0:0:0:
109,192,10616,1,0,0:0:0:0:
402,192,10616,1,0,0:0:0:0:
109,192,10787,128,0,11644:0:0:0:0:
402,192,10787,128,0,11644:0:0:0:0:
36,192,11987,128,0,12073:0:0:0:0:
109,192,12073,128,0,12159:0:0:0:0:
256,192,12159,128,0,12244:0:0:0:0:
402,192,12244,128,0,12330:0:0:0:0:
329,192,12330,1,0,0:0:0:0:
182,192,12330,1,4,0:0:0:0:
36,192,12330,1,0,0:0:0:0:
475,192,12330,128,0,13530:0:0:0:0:
109,192,12673,1,0,0:0:0:0:
256,192,12673,1,0,0:0:0:0:
36,192,12673,1,8,0:0:0:0:
402,192,13016,1,0,0:0:0:0:
182,192,13016,1,0,0:0:0:0:
329,192,13187,128,0,13359:0:0:0:0:
256,192,13187,128,0,13359:0:0:0:0:
109,192,13359,1,8,0:0:0:0:
36,192,13530,1,0,0:0:0:0:
182,192,13530,1,4,0:0:0:0:
109,192,13530,128,0,14387:0:0:0:0:
402,192,13530,1,0,0:0:0:0:
182,192,13873,1,2,0:0:0:0:
36,192,13873,1,0,0:0:0:0:
329,192,14044,1,8,0:0:0:0:
475,192,14044,1,0,0:0:0:0:
402,192,14216,1,0,0:0:0:0:
256,192,14216,1,2,0:0:0:0:
475,192,14387,128,0,15073:0:0:0:0:
329,192,14387,1,0,0:0:0:0:
182,192,14387,1,0,0:0:0:0:
256,192,14559,1,0,0:0:0:0:
109,192,14559,1,2,0:0:0:0:
182,192,14730,1,8,0:0:0:0:
36,192,14730,1,0,0:0:0:0:
402,192,14730,1,0,0:0:0:0:
109,192,14901,1,0,0:0:0:0:
182,192,15073,128,0,16101:0:0:0:0:
329,192,15073,128,0,15244:0:0:0:0:
402,192,15073,128,0,15244:0:0:0:0:
256,192,15073,1,4,0:0:0:0:
36,192,15073,1,0,0:0:0:0:
402,192,15416,128,0,15759:0:0:0:0:
475,192,15416,128,0,15759:0:0:0:0:
109,192,15416,1,8,0:0:0:0:
109,192,15759,128,0,16101:0:0:0:0:
36,192,15759,128,0,16101:0:0:0:0:
475,192,15930,1,0,0:0:0:0:
329,192,15930,1,2,0:0:0:0:
256,192,16101,1,0,0:0:0:0:
402,192,16101,1,8,0:0:0:0:
329,192,16273,1,2,0:0:0:0:
109,192,16273,1,0,0:0:0:0:
182,192,16273,1,0,0:0:0:0:
36,192,16273,128,0,17301:0:0:0:0:
256,192,16616,1,2,0:0:0:0:
402,192,16616,1,0,0:0:0:0:
329,192,16787,1,8,0:0:0:0:
475,192,16787,1,0,0:0:0:0:
109,192,16787,1,0,0:0:0:0:
256,192,16959,1,2,0:0:0:0:
402,192,16959,1,0,0:0:0:0:
329,192,17130,1,8,0:0:0:0:
475,192,17130,1,0,0:0:0:0:
182,192,17130,1,0,0:0:0:0:
256,192,17301,1,2,0:0:0:0:
109,192,17301,1,0,0:0:0:0:
475,192,17473,128,0,17559:0:0:0:0:
329,192,17473,1,8,0:0:0:0:
402,192,17559,128,0,17644:0:0:0:0:
256,192,17559,1,0,0:0:0:0:
329,192,17644,128,0,17730:0:0:0:0:
182,192,17644,1,0,0:0:0:0:
256,192,17730,128,0,17816:0:0:0:0:
109,192,17730,1,0,0:0:0:0:
402,192,17816,1,0,0:0:0:0:
36,192,17816,128,0,17987:0:0:0:0:
182,192,17816,128,0,17987:0:0:0:0:
475,192,17816,1,4,0:0:0:0:
36,192,18159,128,0,18501:0:0:0:0:
182,192,18159,128,0,18501:0:0:0:0:
329,192,18159,1,8,0:0:0:0:
402,192,18501,1,0,0:0:0:0:
329,192,18673,1,2,0:0:0:0:
109,192,18673,1,0,0:0:0:0:
256,192,18844,1,8,0:0:0:0:
36,192,18844,1,0,0:0:0:0:
475,192,18844,1,0,0:0:0:0:
109,192,19016,1,0,0:0:0:0:
182,192,19016,1,0,0:0:0:0:
402,192,19016,1,0,0:0:0:0:
329,192,19016,1,4,0:0:0:0:
36,192,19359,128,0,19530:0:0:0:0:
329,192,19359,128,0,19530:0:0:0:0:
182,192,19530,1,0,0:0:0:0:
475,192,19530,1,8,0:0:0:0:
329,192,19701,128,2,19873:0:0:0:0:
36,192,19701,128,0,19873:0:0:0:0:
475,192,19873,1,8,0:0:0:0:
182,192,19873,1,0,0:0:0:0:
402,192,20044,1,2,0:0:0:0:
109,192,20044,1,0,0:0:0:0:
36,192,20216,1,0,0:0:0:0:
329,192,20216,1,8,0:0:0:0:
182,192,20216,1,0,0:0:0:0:
402,192,20387,1,2,0:0:0:0:
109,192,20387,1,0,0:0:0:0:
36,192,20559,1,0,0:0:0:0:
256,192,20559,1,4,0:0:0:0:
475,192,20559,1,0,0:0:0:0:
36,192,20730,1,0,0:0:0:0:
402,192,20730,1,0,0:0:0:0:
36,192,20901,1,0,0:0:0:0:
182,192,20901,1,8,0:0:0:0:
329,192,20901,1,0,0:0:0:0:
36,192,21073,1,0,0:0:0:0:
182,192,21073,1,8,0:0:0:0:
402,192,21073,1,0,0:0:0:0:
36,192,21244,1,0,0:0:0:0:
475,192,21244,1,0,0:0:0:0:
256,192,21244,1,8,0:0:0:0:
36,192,21416,1,0,0:0:0:0:
256,192,21416,1,8,0:0:0:0:
402,192,21416,1,0,0:0:0:0:
36,192,21587,1,0,0:0:0:0:
329,192,21587,1,0,0:0:0:0:
182,192,21587,1,8,0:0:0:0:
36,192,21759,1,0,0:0:0:0:
182,192,21759,1,8,0:0:0:0:
402,192,21759,1,0,0:0:0:0:
36,192,21930,1,0,0:0:0:0:
475,192,21930,1,4,0:0:0:0:
182,192,21930,128,0,22616:0:0:0:0:
329,192,21930,128,0,22616:0:0:0:0:
256,192,22530,1,0,0:0:0:0:
109,192,22616,1,0,0:0:0:0:
36,192,22616,1,0,0:0:0:0:
475,192,22616,1,0,0:0:0:0:
402,192,22787,1,0,0:0:0:0:
182,192,22787,1,0,0:0:0:0:
329,192,22959,1,0,0:0:0:0:
109,192,22959,1,0,0:0:0:0:
36,192,23130,1,2,0:0:0:0:
256,192,23216,1,2,0:0:0:0:
475,192,23301,1,2,0:0:0:0:
182,192,23301,128,0,24673:0:0:0:0:
402,192,23301,1,0,0:0:0:0:
36,192,23301,1,0,0:0:0:0:
329,192,23473,1,0,0:0:0:0:
36,192,23644,1,2,0:0:0:0:
329,192,23816,1,0,0:0:0:0:
36,192,23987,1,2,0:0:0:0:
329,192,24159,1,0,0:0:0:0:
36,192,24330,1,2,0:0:0:0:
329,192,24501,1,0,0:0:0:0:
109,192,24673,128,0,26044:0:0:0:0:
256,192,24673,1,2,0:0:0:0:
475,192,24844,1,2,0:0:0:0:
256,192,25016,1,2,0:0:0:0:
36,192,25187,128,0,26044:0:0:0:0:
475,192,25187,1,0,0:0:0:0:
256,192,25359,1,2,0:0:0:0:
475,192,25530,1,0,0:0:0:0:
256,192,25701,1,2,0:0:0:0:
475,192,25873,1,0,0:0:0:0:
329,192,26044,128,0,27416:0:0:0:0:
402,192,26044,128,0,27416:0:0:0:0:
182,192,26044,1,0,0:0:0:0:
256,192,26216,1,0,0:0:0:0:
109,192,26387,1,2,0:0:0:0:
182,192,26559,1,0,0:0:0:0:
36,192,26730,1,2,0:0:0:0:
109,192,26901,1,0,0:0:0:0:
256,192,27073,1,2,0:0:0:0:
182,192,27244,1,0,0:0:0:0:
36,192,27416,128,0,28787:0:0:0:0:
475,192,27416,128,0,28787:0:0:0:0:
256,192,27416,1,2,0:0:0:0:
109,192,27587,1,0,0:0:0:0:
329,192,27759,1,2,0:0:0:0:
109,192,27930,128,0,28787:0:0:0:0:
182,192,27930,1,0,0:0:0:0:
402,192,28101,1,2,0:0:0:0:
256,192,28273,1,0,0:0:0:0:
329,192,28444,1,2,0:0:0:0:
182,192,28616,1,0,0:0:0:0:
256,192,28787,1,0,0:0:0:0:
402,192,28787,1,2,0:0:0:0:
329,192,28787,128,0,30159:0:0:0:0:
109,192,28959,1,0,0:0:0:0:
402,192,29130,1,2,0:0:0:0:
109,192,29301,1,0,0:0:0:0:
36,192,29473,1,2,0:0:0:0:
475,192,29644,1,0,0:0:0:0:
36,192,29816,1,2,0:0:0:0:
475,192,29987,1,0,0:0:0:0:
402,192,30159,1,2,0:0:0:0:
36,192,30159,128,0,31530:0:0:0:0:
109,192,30159,1,0,0:0:0:0:
256,192,30330,1,0,0:0:0:0:
475,192,30501,1,2,0:0:0:0:
109,192,30673,128,0,31530:0:0:0:0:
329,192,30673,1,0,0:0:0:0:
182,192,30844,1,2,0:0:0:0:
329,192,31016,1,0,0:0:0:0:
329,192,31187,1,2,0:0:0:0:
402,192,31359,1,0,0:0:0:0:
402,192,31530,1,0,0:0:0:0:
475,192,31530,128,0,32901:0:0:0:0:
182,192,31530,1,0,0:0:0:0:
256,192,31701,1,0,0:0:0:0:
109,192,31873,1,2,0:0:0:0:
182,192,32044,1,0,0:0:0:0:
36,192,32216,1,2,0:0:0:0:
182,192,32387,1,0,0:0:0:0:
329,192,32559,1,2,0:0:0:0:
329,192,32730,1,0,0:0:0:0:
402,192,32901,128,0,34273:0:0:0:0:
109,192,32901,128,0,33587:0:0:0:0:
182,192,32901,1,0,0:0:0:0:
329,192,33244,1,2,0:0:0:0:
182,192,33587,128,0,34273:0:0:0:0:
36,192,33587,128,0,34273:0:0:0:0:
256,192,33587,1,2,0:0:0:0:
329,192,33759,1,0,0:0:0:0:
329,192,33930,1,0,0:0:0:0:
329,192,34101,1,0,0:0:0:0:
475,192,34273,1,0,0:0:0:0:
256,192,34273,128,0,35644:0:0:0:0:
36,192,34616,1,2,0:0:0:0:
402,192,34787,1,0,0:0:0:0:
109,192,34959,1,2,0:0:0:0:
475,192,35130,1,0,0:0:0:0:
182,192,35301,1,2,0:0:0:0:
402,192,35473,1,0,0:0:0:0:
402,192,35644,1,0,0:0:0:0:
36,192,35644,128,0,37016:0:0:0:0:
109,192,35644,1,0,0:0:0:0:
329,192,35987,1,2,0:0:0:0:
182,192,36159,128,0,37016:0:0:0:0:
475,192,36159,1,0,0:0:0:0:
256,192,36330,1,2,0:0:0:0:
402,192,36501,1,0,0:0:0:0:
329,192,36673,1,2,0:0:0:0:
475,192,36844,1,0,0:0:0:0:
109,192,37016,128,0,38387:0:0:0:0:
256,192,37016,1,2,0:0:0:0:
475,192,37359,1,2,0:0:0:0:
475,192,37701,1,2,0:0:0:0:
329,192,37873,1,0,0:0:0:0:
182,192,38044,1,2,0:0:0:0:
402,192,38216,1,0,0:0:0:0:
329,192,38387,128,0,38901:0:0:0:0:
475,192,38387,1,2,0:0:0:0:
36,192,38730,1,2,0:0:0:0:
182,192,38901,128,0,39759:0:0:0:0:
475,192,38901,1,0,0:0:0:0:
402,192,39244,1,0,0:0:0:0:
256,192,39416,1,2,0:0:0:0:
402,192,39587,1,0,0:0:0:0:
475,192,39759,128,0,41130:0:0:0:0:
36,192,39759,1,0,0:0:0:0:
109,192,39930,1,0,0:0:0:0:
182,192,40101,1,2,0:0:0:0:
109,192,40273,1,0,0:0:0:0:
36,192,40444,1,2,0:0:0:0:
402,192,40616,1,0,0:0:0:0:
329,192,40787,1,2,0:0:0:0:
256,192,40959,1,0,0:0:0:0:
402,192,41130,1,0,0:0:0:0:
36,192,41130,128,0,42501:0:0:0:0:
182,192,41130,1,0,0:0:0:0:
109,192,41473,128,0,42501:0:0:0:0:
256,192,41473,1,2,0:0:0:0:
182,192,41816,128,0,42501:0:0:0:0:
329,192,41816,1,0,0:0:0:0:
329,192,41987,1,0,0:0:0:0:
402,192,42159,1,2,0:0:0:0:
402,192,42330,1,2,0:0:0:0:
329,192,42501,128,0,43873:0:0:0:0:
475,192,42501,128,0,43873:0:0:0:0:
256,192,42501,1,0,0:0:0:0:
182,192,42844,1,2,0:0:0:0:
109,192,43187,1,2,0:0:0:0:
256,192,43359,1,0,0:0:0:0:
256,192,43530,1,2,0:0:0:0:
109,192,43701,1,0,0:0:0:0:
109,192,43873,1,0,0:0:0:0:
402,192,43873,128,0,44559:0:0:0:0:
36,192,43873,128,0,44559:0:0:0:0:
182,192,44216,1,2,0:0:0:0:
109,192,44559,128,0,45244:0:0:0:0:
475,192,44559,128,0,45244:0:0:0:0:
256,192,44559,1,0,0:0:0:0:
329,192,44730,1,0,0:0:0:0:
402,192,44901,1,2,0:0:0:0:
182,192,44901,1,2,0:0:0:0:
36,192,45244,1,4,0:0:0:0:
182,192,45244,1,0,0:0:0:0:
402,192,45244,1,0,0:0:0:0:
256,192,45416,1,2,0:0:0:0:
36,192,45587,1,0,0:0:0:0:
109,192,45587,1,0,0:0:0:0:
329,192,45759,1,2,0:0:0:0:
36,192,45930,1,0,0:0:0:0:
109,192,45930,1,0,0:0:0:0:
402,192,46101,1,2,0:0:0:0:
36,192,46273,1,0,0:0:0:0:
109,192,46273,1,0,0:0:0:0:
475,192,46444,1,0,0:0:0:0:
182,192,46444,1,2,0:0:0:0:
36,192,46616,1,0,0:0:0:0:
256,192,46616,128,0,47987:0:0:0:0:
402,192,46616,1,0,0:0:0:0:
329,192,46787,1,2,0:0:0:0:
182,192,46959,1,0,0:0:0:0:
109,192,47130,1,2,0:0:0:0:
36,192,47301,1,0,0:0:0:0:
329,192,47301,1,0,0:0:0:0:
182,192,47473,1,2,0:0:0:0:
402,192,47644,1,0,0:0:0:0:
109,192,47644,1,0,0:0:0:0:
329,192,47816,1,2,0:0:0:0:
475,192,47987,128,0,49359:0:0:0:0:
182,192,47987,1,0,0:0:0:0:
402,192,47987,1,0,0:0:0:0:
109,192,48159,1,2,0:0:0:0:
36,192,48330,1,0,0:0:0:0:
256,192,48330,1,0,0:0:0:0:
109,192,48501,1,2,0:0:0:0:
182,192,48673,1,0,0:0:0:0:
329,192,48673,1,0,0:0:0:0:
256,192,48844,1,2,0:0:0:0:
182,192,49016,1,0,0:0:0:0:
402,192,49016,1,0,0:0:0:0:
109,192,49187,1,2,0:0:0:0:
36,192,49359,128,0,50730:0:0:0:0:
256,192,49359,1,0,0:0:0:0:
402,192,49359,1,0,0:0:0:0:
329,192,49701,1,0,0:0:0:0:
475,192,49701,1,0,0:0:0:0:
256,192,50044,1,0,0:0:0:0:
109,192,50044,1,0,0:0:0:0:
182,192,50387,1,0,0:0:0:0:
329,192,50387,1,0,0:0:0:0:
256,192,50730,1,0,0:0:0:0:
402,192,50730,1,0,0:0:0:0:
475,192,50730,128,0,52101:0:0:0:0:
109,192,50901,1,2,0:0:0:0:
329,192,51073,1,0,0:0:0:0:
36,192,51244,1,2,0:0:0:0:
256,192,51416,1,0,0:0:0:0:
182,192,51587,1,2,0:0:0:0:
109,192,51759,1,0,0:0:0:0:
182,192,51930,1,2,0:0:0:0:
402,192,51930,1,0,0:0:0:0:
256,192,52101,1,0,0:0:0:0:
402,192,52101,1,2,0:0:0:0:
329,192,52101,128,0,53473:0:0:0:0:
182,192,52273,1,2,0:0:0:0:
36,192,52444,1,0,0:0:0:0:
475,192,52444,1,0,0:0:0:0:
109,192,52616,1,0,0:0:0:0:
182,192,52787,1,0,0:0:0:0:
109,192,52959,1,0,0:0:0:0:
36,192,53130,1,0,0:0:0:0:
475,192,53130,1,0,0:0:0:0:
256,192,53301,1,2,0:0:0:0:
475,192,53473,1,0,0:0:0:0:
36,192,53473,1,0,0:0:0:0:
182,192,53473,128,0,54844:0:0:0:0:
402,192,53816,1,0,0:0:0:0:
109,192,53816,1,0,0:0:0:0:
329,192,54159,1,0,0:0:0:0:
36,192,54159,1,0,0:0:0:0:
109,192,54501,1,0,0:0:0:0:
402,192,54501,1,0,0:0:0:0:
256,192,54844,1,0,0:0:0:0:
475,192,54844,1,0,0:0:0:0:
36,192,54844,128,0,56216:0:0:0:0:
402,192,55187,1,0,0:0:0:0:
182,192,55187,1,0,0:0:0:0:
182,192,55530,128,0,56216:0:0:0:0:
329,192,55530,1,0,0:0:0:0:
109,192,55530,1,0,0:0:0:0:
256,192,55873,1,0,0:0:0:0:
475,192,55873,1,0,0:0:0:0:
475,192,56044,1,2,0:0:0:0:
475,192,56216,1,4,0:0:0:0:
256,192,56216,1,0,0:0:0:0:
109,192,56216,1,0,0:0:0:0:
402,192,56387,1,2,0:0:0:0:
256,192,56559,1,0,0:0:0:0:
475,192,56559,1,0,0:0:0:0:
109,192,56730,1,2,0:0:0:0:
256,192,56901,1,0,0:0:0:0:
402,192,57073,1,2,0:0:0:0:
256,192,57244,1,0,0:0:0:0:
36,192,57244,1,0,0:0:0:0:
402,192,57416,1,2,0:0:0:0:
109,192,57416,1,0,0:0:0:0:
109,192,57587,128,0,58959:0:0:0:0:
329,192,57587,1,0,0:0:0:0:
475,192,57759,1,0,0:0:0:0:
329,192,57930,1,2,0:0:0:0:
475,192,58101,1,0,0:0:0:0:
256,192,58273,1,0,0:0:0:0:
402,192,58444,1,0,0:0:0:0:
182,192,58616,1,2,0:0:0:0:
329,192,58787,1,2,0:0:0:0:
475,192,58959,1,0,0:0:0:0:
36,192,58959,128,0,60330:0:0:0:0:
329,192,59130,1,0,0:0:0:0:
182,192,59301,1,2,0:0:0:0:
402,192,59473,1,0,0:0:0:0:
256,192,59644,1,2,0:0:0:0:
109,192,59816,1,0,0:0:0:0:
329,192,59987,1,2,0:0:0:0:
182,192,60159,1,2,0:0:0:0:
329,192,60330,1,0,0:0:0:0:
475,192,60330,128,0,61701:0:0:0:0:
109,192,60330,1,0,0:0:0:0:
256,192,60501,1,2,0:0:0:0:
109,192,60673,1,0,0:0:0:0:
329,192,60673,128,0,61701:0:0:0:0:
256,192,60844,1,2,0:0:0:0:
36,192,61016,128,0,61701:0:0:0:0:
182,192,61016,1,2,0:0:0:0:
256,192,61187,1,2,0:0:0:0:
182,192,61359,128,0,61701:0:0:0:0:
402,192,61530,1,0,0:0:0:0:
256,192,61701,1,4,0:0:0:0:
109,192,61701,1,0,0:0:0:0:
402,192,61701,1,0,0:0:0:0:
109,192,62044,1,0,0:0:0:0:
402,192,62044,1,0,0:0:0:0:
182,192,62216,1,2,0:0:0:0:
402,192,62387,1,0,0:0:0:0:
109,192,62387,1,0,0:0:0:0:
329,192,62559,1,2,0:0:0:0:
182,192,62730,1,0,0:0:0:0:
36,192,62730,1,0,0:0:0:0:
256,192,62901,1,2,0:0:0:0:
329,192,63073,1,0,0:0:0:0:
475,192,63073,1,4,0:0:0:0:
109,192,63073,128,0,64444:0:0:0:0:
36,192,63073,1,0,0:0:0:0:
256,192,63244,1,2,0:0:0:0:
182,192,63416,1,0,0:0:0:0:
402,192,63587,128,0,64444:0:0:0:0:
329,192,63759,1,0,0:0:0:0:
182,192,63930,1,2,0:0:0:0:
36,192,64101,1,0,0:0:0:0:
475,192,64101,1,0,0:0:0:0:
256,192,64273,1,2,0:0:0:0:
256,192,64444,128,0,65816:0:0:0:0:
182,192,64444,1,0,0:0:0:0:
36,192,64444,1,0,0:0:0:0:
329,192,64444,1,4,0:0:0:0:
475,192,64444,1,0,0:0:0:0:
109,192,64787,1,0,0:0:0:0:
36,192,64959,1,0,0:0:0:0:
329,192,64959,1,0,0:0:0:0:
109,192,65044,1,0,0:0:0:0:
402,192,65044,1,0,0:0:0:0:
182,192,65130,1,8,0:0:0:0:
475,192,65130,1,8,0:0:0:0:
402,192,65301,1,0,0:0:0:0:
109,192,65301,1,0,0:0:0:0:
329,192,65473,1,0,0:0:0:0:
36,192,65473,1,0,0:0:0:0:
36,192,65644,1,0,0:0:0:0:
329,192,65644,1,0,0:0:0:0:
109,192,65816,1,0,0:0:0:0:
329,192,65816,1,0,0:0:0:0:
402,192,65816,1,4,0:0:0:0:
182,192,65816,128,0,66501:0:0:0:0:
36,192,65816,128,0,66501:0:0:0:0:
475,192,67187,1,0,0:0:0:0:
329,192,67187,1,0,0:0:0:0:
109,192,67187,1,0,0:0:0:0:
182,192,67187,1,4,0:0:0:0:
256,192,67359,1,2,0:0:0:0:
402,192,67359,1,0,0:0:0:0:
475,192,67530,1,0,0:0:0:0:
36,192,67530,1,0,0:0:0:0:
182,192,67530,1,8,0:0:0:0:
329,192,67701,1,2,0:0:0:0:
109,192,67873,1,0,0:0:0:0:
182,192,67873,1,0,0:0:0:0:
329,192,68044,1,2,0:0:0:0:
402,192,68044,1,0,0:0:0:0:
256,192,68216,1,0,0:0:0:0:
182,192,68216,1,8,0:0:0:0:
36,192,68216,1,0,0:0:0:0:
329,192,68387,1,2,0:0:0:0:
475,192,68559,128,0,68730:0:0:0:0:
109,192,68559,1,0,0:0:0:0:
329,192,68730,128,0,68901:0:0:0:0:
109,192,68730,1,2,0:0:0:0:
402,192,68901,128,0,69073:0:0:0:0:
182,192,68901,1,8,0:0:0:0:
36,192,68901,1,0,0:0:0:0:
256,192,69073,128,2,69244:0:0:0:0:
402,192,69244,128,0,69416:0:0:0:0:
109,192,69244,1,0,0:0:0:0:
329,192,69416,128,0,69587:0:0:0:0:
182,192,69416,1,2,0:0:0:0:
475,192,69587,128,0,69759:0:0:0:0:
109,192,69587,1,8,0:0:0:0:
36,192,69587,1,0,0:0:0:0:
329,192,69759,128,0,69930:0:0:0:0:
256,192,69759,1,2,0:0:0:0:
182,192,69930,128,0,70444:0:0:0:0:
475,192,69930,1,0,0:0:0:0:
402,192,70101,1,0,0:0:0:0:
329,192,70273,1,0,0:0:0:0:
36,192,70273,1,0,0:0:0:0:
109,192,70273,1,8,0:0:0:0:
475,192,70444,128,0,70616:0:0:0:0:
256,192,70444,1,2,0:0:0:0:
182,192,70616,1,0,0:0:0:0:
329,192,70616,128,0,70787:0:0:0:0:
109,192,70787,1,2,0:0:0:0:
402,192,70787,128,0,71301:0:0:0:0:
329,192,70959,1,8,0:0:0:0:
475,192,70959,1,0,0:0:0:0:
36,192,70959,1,0,0:0:0:0:
256,192,71130,1,2,0:0:0:0:
36,192,71301,128,0,71644:0:0:0:0:
109,192,71301,1,0,0:0:0:0:
182,192,71473,1,2,0:0:0:0:
256,192,71644,128,0,71816:0:0:0:0:
329,192,71644,1,0,0:0:0:0:
475,192,71644,1,8,0:0:0:0:
109,192,71816,128,0,72159:0:0:0:0:
329,192,71816,1,0,0:0:0:0:
475,192,71816,1,8,0:0:0:0:
329,192,72159,128,0,72330:0:0:0:0:
256,192,72159,1,0,0:0:0:0:
402,192,72159,1,8,0:0:0:0:
182,192,72330,128,0,72501:0:0:0:0:
36,192,72330,1,0,0:0:0:0:
475,192,72330,1,8,0:0:0:0:
402,192,72501,128,0,72673:0:0:0:0:
109,192,72501,1,0,0:0:0:0:
256,192,72501,1,2,0:0:0:0:
182,192,72673,1,0,0:0:0:0:
329,192,72673,1,4,0:0:0:0:
36,192,72673,128,0,74044:0:0:0:0:
256,192,72844,1,2,0:0:0:0:
329,192,73016,1,0,0:0:0:0:
475,192,73016,1,8,0:0:0:0:
109,192,73016,1,0,0:0:0:0:
182,192,73187,1,2,0:0:0:0:
256,192,73359,1,0,0:0:0:0:
402,192,73359,1,0,0:0:0:0:
329,192,73530,1,2,0:0:0:0:
182,192,73701,1,0,0:0:0:0:
109,192,73701,1,0,0:0:0:0:
475,192,73701,1,8,0:0:0:0:
256,192,73873,1,2,0:0:0:0:
402,192,74044,1,0,0:0:0:0:
475,192,74044,1,0,0:0:0:0:
109,192,74044,128,0,74559:0:0:0:0:
329,192,74216,1,2,0:0:0:0:
475,192,74387,1,8,0:0:0:0:
256,192,74387,1,0,0:0:0:0:
36,192,74387,1,0,0:0:0:0:
402,192,74559,128,0,75073:0:0:0:0:
182,192,74559,1,2,0:0:0:0:
256,192,74730,1,0,0:0:0:0:
109,192,74730,1,0,0:0:0:0:
329,192,74901,1,2,0:0:0:0:
182,192,74901,1,0,0:0:0:0:
256,192,75073,1,0,0:0:0:0:
36,192,75073,1,0,0:0:0:0:
475,192,75073,1,8,0:0:0:0:
109,192,75244,1,2,0:0:0:0:
256,192,75416,128,0,76616:0:0:0:0:
329,192,75416,1,4,0:0:0:0:
475,192,75416,1,0,0:0:0:0:
36,192,75416,1,0,0:0:0:0:
109,192,75759,1,0,0:0:0:0:
36,192,75759,1,0,0:0:0:0:
475,192,75759,1,8,0:0:0:0:
475,192,76101,1,8,0:0:0:0:
182,192,76101,1,0,0:0:0:0:
36,192,76101,1,0,0:0:0:0:
402,192,76273,1,0,0:0:0:0:
109,192,76273,1,0,0:0:0:0:
109,192,76444,1,0,0:0:0:0:
402,192,76444,1,8,0:0:0:0:
36,192,76616,1,0,0:0:0:0:
109,192,76616,1,0,0:0:0:0:
402,192,76616,1,0,0:0:0:0:
475,192,76616,1,4,0:0:0:0:
182,192,76616,128,0,78159:0:0:0:0:
329,192,76616,128,0,78159:0:0:0:0:
109,192,76959,1,8,0:0:0:0:
36,192,76959,1,0,0:0:0:0:
475,192,77130,1,0,0:0:0:0:
402,192,77216,1,0,0:0:0:0:
256,192,77301,1,0,0:0:0:0:
109,192,77387,1,0,0:0:0:0:
36,192,77473,1,8,0:0:0:0:
475,192,77559,1,8,0:0:0:0:
36,192,77644,1,8,0:0:0:0:
475,192,77730,1,8,0:0:0:0:
109,192,77816,1,8,0:0:0:0:
402,192,77901,1,8,0:0:0:0:
109,192,77987,1,8,0:0:0:0:
402,192,78073,1,8,0:0:0:0:
36,192,78159,1,0,0:0:0:0:
256,192,78159,1,4,0:0:0:0:
475,192,78159,1,0,0:0:0:0:
109,192,78330,1,2,0:0:0:0:
402,192,78330,1,0,0:0:0:0:
182,192,78501,1,8,0:0:0:0:
475,192,78501,1,8,0:0:0:0:
36,192,78501,1,0,0:0:0:0:
402,192,78673,1,0,0:0:0:0:
109,192,78673,1,2,0:0:0:0:
329,192,78844,1,0,0:0:0:0:
36,192,78844,1,0,0:0:0:0:
329,192,79016,1,2,0:0:0:0:
36,192,79016,1,2,0:0:0:0:
402,192,79187,1,8,0:0:0:0:
182,192,79187,1,8,0:0:0:0:
475,192,79187,128,0,79359:0:0:0:0:
329,192,79359,128,0,79530:0:0:0:0:
109,192,79359,1,2,0:0:0:0:
36,192,79530,1,0,0:0:0:0:
182,192,79530,128,0,79873:0:0:0:0:
475,192,79530,1,0,0:0:0:0:
256,192,79701,1,2,0:0:0:0:
402,192,79701,1,2,0:0:0:0:
329,192,79787,1,2,0:0:0:0:
475,192,79787,1,2,0:0:0:0:
109,192,79873,1,0,0:0:0:0:
402,192,79873,1,0,0:0:0:0:
256,192,79873,1,0,0:0:0:0:
329,192,80044,128,8,80216:0:0:0:0:
475,192,80044,128,0,80216:0:0:0:0:
182,192,80044,1,8,0:0:0:0:
402,192,80387,128,0,80559:0:0:0:0:
256,192,80387,128,8,80559:0:0:0:0:
109,192,80387,1,8,0:0:0:0:
36,192,80730,1,0,0:0:0:0:
475,192,80730,1,0,0:0:0:0:
109,192,80730,1,0,0:0:0:0:
182,192,80730,128,0,82273:0:0:0:0:
329,192,80730,128,0,82273:0:0:0:0:
402,192,80730,1,4,0:0:0:0:
109,192,81073,128,2,81244:0:0:0:0:
36,192,81244,128,8,81416:0:0:0:0:
402,192,81416,128,2,81587:0:0:0:0:
475,192,81587,128,0,81759:0:0:0:0:
36,192,81759,128,2,81930:0:0:0:0:
256,192,81930,128,8,82101:0:0:0:0:
475,192,82101,128,2,82273:0:0:0:0:
402,192,82273,128,0,82444:0:0:0:0:
329,192,82444,128,2,82616:0:0:0:0:
256,192,82616,128,8,82787:0:0:0:0:
109,192,82787,1,0,0:0:0:0:
36,192,82787,1,0,0:0:0:0:
475,192,82787,1,4,0:0:0:0:
402,192,82787,1,0,0:0:0:0:
182,192,82787,128,0,83301:0:0:0:0:
329,192,83130,1,2,0:0:0:0:
109,192,83130,1,0,0:0:0:0:
475,192,83301,1,8,0:0:0:0:
256,192,83301,1,8,0:0:0:0:
36,192,83301,1,0,0:0:0:0:
109,192,83473,1,0,0:0:0:0:
329,192,83473,1,0,0:0:0:0:
256,192,83644,1,0,0:0:0:0:
475,192,83644,1,0,0:0:0:0:
36,192,83644,1,4,0:0:0:0:
402,192,83644,1,0,0:0:0:0:
109,192,83816,1,0,0:0:0:0:
329,192,83816,1,0,0:0:0:0:
182,192,83987,1,0,0:0:0:0:
402,192,83987,1,0,0:0:0:0:
475,192,83987,1,8,0:0:0:0:
329,192,84159,1,2,0:0:0:0:
109,192,84159,1,2,0:0:0:0:
256,192,84330,1,0,0:0:0:0:
36,192,84330,1,0,0:0:0:0:
109,192,84501,1,2,0:0:0:0:
329,192,84501,1,2,0:0:0:0:
182,192,84673,1,0,0:0:0:0:
402,192,84673,1,0,0:0:0:0:
475,192,84673,1,8,0:0:0:0:
329,192,84844,1,2,0:0:0:0:
256,192,84844,1,2,0:0:0:0:
182,192,85016,1,0,0:0:0:0:
402,192,85016,1,0,0:0:0:0:
475,192,85016,128,0,86387:0:0:0:0:
36,192,85016,1,0,0:0:0:0:
109,192,85359,1,8,0:0:0:0:
329,192,85359,1,0,0:0:0:0:
402,192,85359,1,0,0:0:0:0:
256,192,85530,1,2,0:0:0:0:
36,192,85701,1,0,0:0:0:0:
109,192,85701,1,0,0:0:0:0:
329,192,85873,1,2,0:0:0:0:
109,192,86044,1,0,0:0:0:0:
182,192,86044,1,0,0:0:0:0:
402,192,86044,1,8,0:0:0:0:
329,192,86216,1,2,0:0:0:0:
36,192,86216,1,0,0:0:0:0:
109,192,86387,1,0,0:0:0:0:
402,192,86387,1,0,0:0:0:0:
256,192,86387,128,0,87759:0:0:0:0:
182,192,86387,1,0,0:0:0:0:
475,192,86730,1,0,0:0:0:0:
36,192,86816,1,0,0:0:0:0:
402,192,86901,1,0,0:0:0:0:
109,192,86987,1,0,0:0:0:0:
329,192,87073,1,0,0:0:0:0:
182,192,87159,1,0,0:0:0:0:
402,192,87244,1,0,0:0:0:0:
109,192,87330,1,0,0:0:0:0:
475,192,87416,1,0,0:0:0:0:
36,192,87501,1,0,0:0:0:0:
402,192,87587,1,0,0:0:0:0:
109,192,87673,1,0,0:0:0:0:
475,192,87759,1,4,0:0:0:0:
329,192,87759,1,0,0:0:0:0:
182,192,87759,128,0,89130:0:0:0:0:
36,192,87759,128,0,89130:0:0:0:0:
